#TITLE:Blue Bookmark;
#SUBTITLE:SDO China lv35 - [N]hok[Q] Simfile;
#ARTIST:Galileo Galilei;
#TITLETRANSLIT:;
#SUBTITLETRANSLIT:;
#ARTISTTRANSLIT:;
#CREDIT:[N]hok[Q];
#BANNER:bn.png;
#BACKGROUND:bg.png;
#LYRICSPATH:;
#CDTITLE:cd.png;
#MUSIC:Blue Bookmark.mp3;
#OFFSET:0.000;
#SAMPLESTART:45.451;
#SAMPLELENGTH:12.000;
#SELECTABLE:YES;
#DISPLAYBPM:88.000:260.000;
#BPMS:0.000=132.013,1.000=132.007,2.000=132.013,3.000=132.007,4.000=132.013,5.000=132.007,6.000=132.013,7.000=132.007,8.000=132.013,9.000=132.007,10.000=132.013,11.000=88.430,11.500=260.257,12.000=132.013,13.000=132.007,14.000=132.013,15.000=132.007,17.000=132.013,18.000=132.007,19.000=88.430,19.500=260.304,20.000=132.007,21.000=132.013,22.000=132.007,23.000=132.013,24.000=132.007,25.000=132.013,26.000=132.007,27.000=88.430,27.500=260.304,28.000=132.007,29.000=132.013,30.000=132.007,31.000=132.013,32.000=132.007,33.000=132.013,34.000=132.007,35.000=88.430,35.500=260.304,36.000=132.007,37.000=132.013,38.000=132.007,39.000=132.013,40.000=132.007,41.000=132.013,42.000=132.007,43.000=88.430,43.500=260.304,44.000=132.007,45.000=132.013,46.000=132.007,47.000=132.013,48.000=132.007,49.000=132.013,50.000=132.007,51.000=88.436,51.500=260.304,52.000=132.007,53.000=132.013,54.000=132.007,55.000=132.013,56.000=132.007,57.000=132.013,58.000=132.007,59.000=132.013,60.000=132.007,61.000=132.013,62.000=132.007,63.000=132.013,64.000=132.007,65.000=132.013,66.000=132.007,67.000=132.013,68.000=132.007,69.000=132.013,70.000=132.007,71.000=132.013,72.000=132.007,73.000=132.013,74.000=132.007,75.000=132.013,76.000=132.007,77.000=132.013,78.000=132.007,79.000=132.013,80.000=132.007,81.000=132.013,82.000=132.007,83.000=132.013,84.000=132.007,85.000=132.013,86.000=132.007,87.000=132.013,88.000=132.007,89.000=132.013,90.000=132.007,91.000=132.013,92.000=132.007,93.000=132.013,94.000=132.007,95.000=132.013,96.000=132.007,97.000=132.013,98.000=132.007,99.000=132.013,100.000=132.007,101.000=132.013,102.000=132.007,103.000=132.013,104.000=132.007,105.000=132.013,106.000=132.007,107.000=132.013,108.000=132.007,109.000=132.013,110.000=132.007,111.000=132.013,112.000=132.007,113.000=132.013,114.000=132.007,115.000=132.013,116.000=132.007,117.000=132.013,118.000=132.007,119.000=132.013,120.000=132.007,121.000=132.013,122.000=132.007,123.000=132.013,124.000=132.007,125.000=132.013,126.000=132.007,127.000=132.013,128.000=132.007,129.000=132.013,130.000=132.007,131.000=132.013,132.000=132.007,133.000=132.013,134.000=132.007,135.000=132.013,136.000=132.007,137.000=132.013,138.000=132.007,139.000=132.013,140.000=132.007,141.000=132.013,142.000=132.007,143.000=132.013,144.000=132.007,145.000=132.013,146.000=132.007,147.000=132.013,148.000=132.007,149.000=132.013,150.000=132.007,151.000=132.013,152.000=132.007,153.000=132.013,154.000=132.007,155.000=132.013,156.000=132.007,157.000=132.013,158.000=132.007,159.000=132.013,160.000=132.007,161.000=132.013,162.000=132.007,163.000=132.013,164.000=132.007,165.000=132.013,166.000=132.007,167.000=132.013,168.000=132.007,169.000=132.013,170.000=132.007,171.000=132.013,172.000=132.007,173.000=132.013,174.000=132.007,175.000=132.013,176.000=132.007,177.000=132.013,178.000=132.007,179.000=132.013,180.000=132.007,181.000=132.013,182.000=132.007,183.000=132.013,184.000=132.007,185.000=132.013,186.000=132.007,187.000=132.013,188.000=132.007,189.000=132.013,190.000=132.007,191.000=132.013,192.000=132.007,194.000=132.013,195.000=132.007,196.000=132.013,197.000=132.007,198.000=132.013,199.000=132.007,200.000=132.013,201.000=132.007,202.000=132.013,203.000=132.007,204.000=132.013,205.000=132.007,206.000=132.013,207.000=132.007,208.000=132.013,209.000=132.007,210.000=132.013,211.000=132.007,212.000=132.013,213.000=132.007,214.000=132.013,215.000=132.007,216.000=132.013,217.000=132.007,218.000=132.013,219.000=132.007,220.000=132.013,221.000=132.007,222.000=132.013,223.000=132.007,224.000=132.013,225.000=132.007,226.000=132.013,227.000=132.007,228.000=132.013,229.000=132.007,230.000=132.013,231.000=132.007,232.000=132.013,233.000=132.007,234.000=132.013,235.000=132.007,236.000=132.013,237.000=132.007,238.000=132.013,239.000=132.007,240.000=132.013,241.000=132.007,242.000=132.013,243.000=132.007,244.000=132.013,245.000=132.007,246.000=132.013,247.000=132.007,248.000=132.013,249.000=132.007,250.000=132.013,251.000=132.007,252.000=132.013,253.000=132.007,254.000=132.013,255.000=132.007,256.000=132.013,257.000=132.007,258.000=132.013,259.000=132.007,260.000=132.013,261.000=132.007,262.000=132.013,263.000=132.007;
#STOPS:;
#BGCHANGES:;
// cache tags:
#FIRSTBEAT:4.000;
#LASTBEAT:263.750;
#SONGFILENAME:Songs/SDO pack 4/Blue Bookmark/Blue Bookmark.sm;
#HASMUSIC:1;
#HASBANNER:1;
#MUSICLENGTH:120.048;
// end cache tags

//---------------dance-single - ----------------
#NOTES:
     dance-single:
     :
     Hard:
     35:
     1.000,1.000,1.000,0.816,0.458,617.000,316.000,98.000,0.000,59.000:
0000
0000
0000
0000
,
0002
0000
0200
0003
2000
0300
0020
3000
0200
0030
0002
0300
2000
0003
0020
3000
,
0200
0030
0002
0300
2000
0003
0020
3000
0100
0030
0001
0000
1200
0000
0000
0300
,
1002
0000
0020
0003
0200
0030
2000
0300
0020
3000
0002
0030
0200
0003
0020
0300
,
2000
0030
0002
3000
0200
0003
0020
0300
1000
0030
0100
0000
1002
0000
0000
0003
,
2100
0000
0210
3000
0021
0300
1002
0030
1200
0003
2010
0300
0012
3000
0120
0003
,
1200
0030
2001
0300
0012
3000
0110
0003
0100
0000
0010
0000
2200
0000
0000
3300
,
0012
0000
0210
0003
1020
0300
2001
0030
0201
3000
0021
0300
1002
0030
2100
0003
,
0210
3000
0021
0300
1002
0030
1100
0003
0010
0000
0100
0000
2002
0000
0000
3003
,
0210
0000
1020
0300
2001
0030
0102
3000
0210
0003
2010
0300
0012
3000
0120
0003
,
1200
0030
2001
0300
0021
3000
0101
0030
1000
0000
0001
0000
0220
0000
0000
0330
,
1002
0000
2010
0003
0210
3000
0021
0300
2001
0030
0102
3000
0210
0003
1020
0300
,
2001
0030
0102
3000
0210
0003
1010
0300
0001
0000
1100
0000
0022
0000
0000
0033
,
1100
0001
0110
1000
0101
0110
1001
0100
,
0011
1000
0110
0001
1010
0110
1001
0010
,
0101
0010
1001
0100
1010
0110
0101
0010
,
1001
1000
0101
0010
0101
0110
1010
0100
,
1001
0001
1010
0100
1010
0101
1010
0100
,
1010
0001
0110
0010
0101
1001
0110
0100
,
1010
0010
0101
0100
1001
0011
1100
0010
,
1001
0000
0000
0000
0100
0000
0000
0000
1010
0000
0000
0000
0001
0000
0000
0000
0110
0000
0000
0000
1010
0000
0000
0000
0101
0000
0000
0000
0010
0000
1000
0100
,
0011
1000
0110
0001
1010
1010
0101
0010
,
1001
0000
0000
0000
0100
0000
0000
0000
1010
0000
0000
0000
1000
0000
0000
0000
0110
0000
0000
0000
0101
0000
0000
0000
1010
0000
0000
0000
0001
0000
0100
0010
,
1001
0010
0101
1000
0110
0101
1001
0010
,
1001
0000
0000
0000
0010
0000
0000
0000
0101
0000
0000
0000
0010
0000
0000
0000
1100
0000
0000
0000
0011
0000
0000
0000
1010
0000
0000
0000
0100
0000
0010
0001
,
1100
0010
0101
1000
0110
1001
0001
1100
,
0010
0000
0000
0000
0101
0000
0000
0000
1000
0000
0000
0000
0110
0000
0000
0000
0001
0000
0000
0000
1010
0000
0000
0000
0110
0000
0000
0000
0101
0000
0010
0100
,
1001
0010
1100
0001
0110
1010
0110
0100
,
1001
0000
0010
0010
0101
0000
1000
0000
0110
0000
1001
0100
1010
0000
0011
0000
,
2100
0000
0000
0000
0010
0000
0000
0000
0002
0000
0000
0000
0100
0000
3000
0000
0110
0000
0000
0000
1010
0000
1000
0003
0210
0000
0000
0000
0001
0000
0300
0000
,
1021
0000
0100
0000
2001
0000
0100
0000
0100
0000
0001
0000
0100
3030
0101
0000
,
0110
0000
0000
0000
1001
0000
0000
0000
1200
0000
0000
0000
0010
0000
0000
0300
1002
0000
0000
0000
0100
0000
0000
0003
0110
0000
0000
0000
1000
0000
0000
0000
,
0101
0000
0000
0000
0110
0000
0000
0000
1020
0000
0000
0000
0100
0000
0000
0000
0001
0000
0001
0000
1000
0000
0000
0000
0100
0000
0000
0030
2001
0000
0000
0000
,
0100
0000
0000
0000
0002
0000
0000
0000
0100
0000
0000
3000
0110
0000
0000
0000
1010
0000
0010
0003
1100
0000
0000
0000
0210
0000
0000
0000
1000
0000
0000
0300
,
0021
0000
0000
0000
0001
0000
0000
0000
2000
0000
0000
0000
0100
0000
0000
0000
0100
0000
0000
3000
0002
0000
0000
0000
0100
0000
0000
0033
1100
0000
0000
0000
,
0001
1010
0110
1000
0001
0100
0010
1001
,
0100
1010
0011
1000
0011
0110
1100
0101
,
0101
0011
1100
0110
1010
0101
1001
0110
,
0101
0000
1001
0000
0110
0000
1001
0000
0001
0001
1000
0100
0010
0001
1010
0000
,
0100
0011
1000
0000
0110
0000
1001
0000
0010
1100
0001
0000
0110
0000
1001
0000
,
0011
1100
0010
0000
0101
0000
1000
0000
0110
0000
0001
0000
1010
0000
0101
0000
,
1000
0110
0001
0000
1100
0000
0011
0000
0100
0011
1000
0000
0101
0000
1010
0000
,
0011
1100
0010
0000
1001
0000
0100
0000
0110
0000
1000
0000
0110
0000
0011
0000
,
1100
0101
0010
1001
0110
1001
0100
1001
,
0011
1100
0010
0101
0011
1010
0100
0011
,
0110
1100
0001
1010
0110
0101
0010
1001
,
1010
1100
0001
0110
1010
0101
0011
1100
,
0011
0000
0101
0000
0110
0000
1001
0000
1100
0010
0101
0000
1001
0000
0110
0000
,
0001
0000
1010
0000
0100
0010
1100
0000
0001
0001
0110
0000
1000
0010
1001
0000
,
0101
1010
0100
0011
0110
1001
0010
1001
,
0110
0000
1010
0000
0100
0000
0011
0000
1100
0010
1001
0000
0100
0000
0011
0000
,
1001
0110
0100
1010
0101
1010
0010
0101
,
0011
1100
0010
1001
0110
1001
0100
0011
,
0011
1010
0100
1001
1100
0110
0001
1100
,
1100
0000
0011
0000
0011
0000
0110
0000
1001
0000
0110
0000
1001
0010
1100
0001
,
0100
0010
1001
0100
1010
0001
0100
0010
1001
0100
0011
1000
0101
0010
0100
0001
,
1010
0100
0001
1000
0011
0100
0010
1000
0101
0010
1100
0001
1010
0100
0010
0001
,
1100
0010
1000
0100
1001
0010
0100
0010
1001
0100
0011
1000
0101
0010
1000
0100
,
0011
1000
0100
0010
1001
0010
0100
1000
0101
0010
1100
0001
1010
0100
0011
1000
,
0101
0010
1000
0100
1010
0001
0100
0010
1100
0001
0010
0100
1001
0100
0010
1000
,
0101
0010
1000
0100
1010
0001
0100
0010
1100
0001
1000
0100
0011
1000
0100
0010
,
2001
0000
0100
0000
0010
0000
0100
0000
0001
0000
0100
0000
0010
0000
0001
0000
0100
0000
0001
0000
0010
0000
0100
0000
0001
0000
0010
0000
0100
0000
0001
3000
,
0120
0000
0001
0000
1000
0000
0100
0000
0001
0000
1000
0000
0100
0000
0001
0030
1000
0000
0001
0000
0100
0000
0010
0000
1000
0000
0001
0000
1100
0000
0010
0000
,
0201
0000
1000
0000
0010
0000
1000
0000
0001
0000
0010
0000
1000
0000
0010
0000
1000
0000
0001
0000
0010
0000
1000
0000
0001
0000
0010
0000
1000
0000
0010
0300
,
1002
0000
0100
0000
0010
0000
1000
0000
0100
0000
0010
0000
1000
0000
0100
0000
0010
0000
1000
0000
0100
0000
0010
0003
1100
0000
0010
0000
1000
0000
0100
1000
,
0022
0000
0000
0000
0000
0000
0000
0000
0000
0000
0000
0000
0000
0000
0000
0033
,
0000
0000
0000
0000
,
0000
0000
0000
0000
;
